奥马尔阿尔希拉尔

 找回密碼
 立即注冊

QQ登錄

只需一步,快速開始

搜索
熱搜: 活動 交友 discuz
查看: 2926|回復: 41
打印 上一主題 下一主題

阿尔希拉尔Vs阿赫利: [1080P] GFRIEND - Fever (Choreography Ver )

[復制鏈接]
  • TA的每日心情
    無聊
    4 天前
  • 奥马尔阿尔希拉尔 www.azyfbg.com.cn 11

    帖子

    410

    積分

    391

    金錢

    高清發布組

    Rank: 7Rank: 7Rank: 7

    積分
    410
    跳轉到指定樓層
    樓主
    發表于 2019-9-15 09:41:16 | 只看該作者 回帖獎勵 |倒序瀏覽 |閱讀模式





    GFRIEND(여자친구)是Source Music于2015年推出的韓國女子演唱組合,由金韶情(So Won)、鄭藝琳(Ye Rin)、丁恩妃(Eun Ha)、崔俞娜(Yu Ju)、黃恩妃(Sin B)、金藝源(Um Ji)六名成員組成。


    2015年1月,發行首張迷你專輯《Season of Glass》,之后以KBS2綜藝節目《音樂銀行》作為出道舞臺正式出道;7月,發行第二張迷你專輯《Flower Bud》。2016年1月,發行第三張迷你專輯《Snowflake》。2017年3月,發行第四張迷你專輯《THE AWAKENING》。2018年10月,發行首張日文單曲專輯《Memoria》,從而正式在日本出道。


    2019年1月,在首爾舉行了第二張正式專輯《Time for us》的showcase。專輯主打歌《Sunrise》描寫了少女面對愛情時心里的復雜感情。3月,在日本發行第三張日文單曲《FLOWER》。5月起,舉行亞洲巡回演唱會。7月,在首爾舉行了第七張迷你專輯《FEVER SEASON》的發布會,專輯主打歌《Fever》加入了慢波特的流行元素。




    1. General
    2.      Complete name : GFRIEND - Fever (Choreography Ver.) (Bugs! 1080p).mp4
    3.      Format : MPEG-4
    4.      Codec ID : M4V
    5.      File size : 666 MiB
    6.      Duration : 3mn 42s
    7.      Overall bit rate mode : Variable
    8.      Overall bit rate : 25.1 Mbps
    9.      Encoded date : UTC 2019-07-04 14:30:25
    10.      Tagged date : UTC 2019-07-04 14:30:46
    11.      ㏕IM : 01:05:38:12
    12.      ㏕SC : 24000
    13.      ㏕SZ : 1001
    14.   Video #1
    15.      ID : 1
    16.      Format : AVC
    17.      Format/Info : Advanced Video Codec
    18.      Format profile : [email protected]
    19.      Format settings, CABAC : No
    20.      Format settings, ReFrames : 2 frames
    21.      Format settings, GOP : M=1, N=72
    22.      Codec ID : avc1
    23.      Codec ID/Info : Advanced Video Coding
    24.      Duration : 3mn 42s
    25.      Bit rate mode : Variable
    26.      Bit rate : 25.0 Mbps
    27.      Width : 1 920 pixels
    28.      Height : 1 080 pixels
    29.      Display aspect ratio : 16:9
    30.      Frame rate mode : Variable
    31.      Frame rate : 23.976 fps
    32.      Minimum frame rate : 23.976 fps
    33.      Maximum frame rate : 24.000 fps
    34.      Standard : NTSC
    35.      Color space : YUV
    36.      Chroma subsampling : 4:2:0
    37.      Bit depth : 8 bits
    38.      Scan type : Progressive
    39.      Bits/(Pixel*Frame) : 0.502
    40.      Stream size : 662 MiB (99%)
    41.      Language : English
    42.      Encoded date : UTC 2019-07-04 14:30:25
    43.      Tagged date : UTC 2019-07-04 14:30:25
    44.      Material_Duration : 222180
    45.      Material_StreamSize : 693639145
    46.      Material_FrameCount : 5327
    47.      Color primaries : BT.709-5, BT.1361, IEC 61966-2-4, SMPTE RP177
    48.      Transfer characteristics : BT.709-5, BT.1361
    49.      Matrix coefficients : BT.709-5, BT.1361, IEC 61966-2-4 709, SMPTE RP177
    50.   Audio #2
    51.      ID : 2
    52.      Format : AAC
    53.      Format/Info : Advanced Audio Codec
    54.      Format profile : LC
    55.      Codec ID : 40
    56.      Duration : 3mn 42s
    57.      Bit rate mode : Variable
    58.      Bit rate : 157 Kbps
    59.      Maximum bit rate : 252 Kbps
    60.      Channel(s) : 2 channels
    61.      Channel positions : Front: L R
    62.      Sampling rate : 48.0 KHz
    63.      Compression mode : Lossy
    64.      Stream size : 4.17 MiB (1%)
    65.      Language : English
    66.      Encoded date : UTC 2019-07-04 14:30:25
    67.      Tagged date : UTC 2019-07-04 14:30:25
    68.      Material_Duration : 222229
    69.      Material_StreamSize : 4371668
    復制代碼




    MV截圖:





    鏈接:https://pan.baidu.com/s/1VFOhx488Fy3YN3KqdK4j9g

    游客,本付費內容需要支付 5個金錢 才能瀏覽   

    免扣積分開通VIP會員

    購買


    分享到:  QQ好友和群QQ好友和群
    收藏收藏
  • TA的每日心情
    開心
    2019-10-7 19:18
  • 179

    帖子

    57

    積分

    0

    金錢

    Cm初級會員

    Rank: 3Rank: 3

    積分
    57
    沙發
    發表于 2019-9-15 11:14:26 | 只看該作者
    金錢不夠 評論來湊
  • TA的每日心情
    開心
    2019-10-7 19:18
  • 179

    帖子

    57

    積分

    0

    金錢

    Cm初級會員

    Rank: 3Rank: 3

    積分
    57
    板凳
    發表于 2019-9-15 11:44:06 | 只看該作者
    金錢不夠 評論來湊 謝謝分享

    該用戶從未簽到

    6

    帖子

    8

    積分

    6

    金錢

    Cm初級會員

    Rank: 3Rank: 3

    積分
    8
    地板
    發表于 2019-9-15 12:18:22 | 只看該作者
    金錢不夠 評論來湊

    該用戶從未簽到

    51

    帖子

    19

    積分

    4

    金錢

    Cm初級會員

    Rank: 3Rank: 3

    積分
    19
    5#
    發表于 2019-9-15 13:09:46 | 只看該作者
    暗訪時發生大幅度收費方式打發第三方

    該用戶從未簽到

    9

    帖子

    6

    積分

    3

    金錢

    Cm初級會員

    Rank: 3Rank: 3

    積分
    6
    6#
    發表于 2019-9-15 14:47:04 | 只看該作者
    感謝樓組的資源
  • TA的每日心情
    慵懶
    6 小時前
  • 361

    帖子

    320

    積分

    150

    金錢

    Cm中級會員

    Rank: 5Rank: 5

    積分
    320
    7#
    發表于 2019-9-15 15:53:00 | 只看該作者
    小女友舞蹈版的mv,很不錯喲

    該用戶從未簽到

    51

    帖子

    19

    積分

    4

    金錢

    Cm初級會員

    Rank: 3Rank: 3

    積分
    19
    8#
    發表于 2019-9-15 16:11:15 | 只看該作者
    暗示法士大夫撒地方是的發送到發多少
  • TA的每日心情
    開心
    2019-9-23 16:02
  • 35

    帖子

    13

    積分

    1

    金錢

    Cm初級會員

    Rank: 3Rank: 3

    積分
    13
    9#
    發表于 2019-9-15 21:21:07 | 只看該作者
    金錢不夠   攢足再說
  • TA的每日心情
    開心
    2019-9-15 21:48
  • 6

    帖子

    8

    積分

    6

    金錢

    Cm初級會員

    Rank: 3Rank: 3

    積分
    8
    10#
    發表于 2019-9-15 21:49:36 | 只看該作者
    hebv開心開心開心開心
  • TA的每日心情
    開心
    2019-9-16 02:50
  • 68

    帖子

    53

    積分

    31

    金錢

    Cm初級會員

    Rank: 3Rank: 3

    積分
    53
    11#
    發表于 2019-9-16 02:54:21 | 只看該作者
    感謝樓主無私分享優質 MV,謝謝啦!
  • TA的每日心情
    難過
    2017-7-11 10:56
  • 2

    帖子

    3

    積分

    2

    金錢

    Cm初級會員

    Rank: 3Rank: 3

    積分
    3
    12#
    發表于 2019-9-16 09:56:58 | 只看該作者

    金錢不夠 評論來湊 謝
  • TA的每日心情
    慵懶
    5 小時前
  • 112

    帖子

    102

    積分

    34

    金錢

    Cm中級會員

    Rank: 5Rank: 5

    積分
    102
    13#
    發表于 2019-9-16 12:21:00 | 只看該作者
    謝謝樓主分享
  • TA的每日心情
    擦汗
    2019-3-13 21:20
  • 418

    帖子

    161

    積分

    10

    金錢

    Cm中級會員

    Rank: 5Rank: 5

    積分
    161
    14#
    發表于 2019-9-16 14:10:18 | 只看該作者
    感謝樓主,甚是喜歡。

    該用戶從未簽到

    1

    帖子

    1

    積分

    1

    金錢

    Cm新人

    Rank: 1

    積分
    1
    15#
    發表于 2019-9-16 14:10:41 | 只看該作者
    GF的歌就是清新啊

    該用戶從未簽到

    74

    帖子

    96

    積分

    74

    金錢

    Cm初級會員

    Rank: 3Rank: 3

    積分
    96
    16#
    發表于 2019-9-16 15:08:57 | 只看該作者
    謝謝樓主分享
  • TA的每日心情
    無聊
    2019-9-9 11:19
  • 18

    帖子

    11

    積分

    5

    金錢

    Cm初級會員

    Rank: 3Rank: 3

    積分
    11
    17#
    發表于 2019-9-16 15:11:48 | 只看該作者
    感謝樓主分享視頻
  • TA的每日心情
    開心
    2019-10-9 11:16
  • 527

    帖子

    206

    積分

    7

    金錢

    Cm中級會員

    Rank: 5Rank: 5

    積分
    206
    18#
    發表于 2019-9-16 15:46:37 | 只看該作者
    非常不錯的資源,感謝樓主的無私分享,謝謝了
  • TA的每日心情
    開心
    2018-10-29 12:32
  • 42

    帖子

    18

    積分

    4

    金錢

    Cm初級會員

    Rank: 3Rank: 3

    積分
    18
    19#
    發表于 2019-9-16 16:34:13 | 只看該作者
    這個女團還沒有關注呢,關注一下

    該用戶從未簽到

    5

    帖子

    2

    積分

    0

    金錢

    Cm新人

    Rank: 1

    積分
    2
    20#
    發表于 2019-9-16 19:09:03 | 只看該作者
    金錢不夠 評論來湊 謝謝分享
    您需要登錄后才可以回帖 登錄 | 立即注冊

    手機版|Archiver| 奥马尔阿尔希拉尔 ( 黔ICP備16007515號-4 )

    GMT+8, 2019-10-20 07:00 , Processed in 0.096473 second(s), 35 queries .

    Powered by Discuz! X3.4

    © 2001-2012 Comsenz Inc.

    返回頂部